<?xml version="1.0" standalone="no"?>
<!DOCTYPE svg PUBLIC "-//W3C//DTD SVG 1.1//EN" "http://www.w3.org/Graphics/SVG/1.1/DTD/svg11.dtd">
<svg xmlns="http://www.w3.org/2000/svg">
<defs >
<font id="DoHyeon" horiz-adv-x="752" ><font-face
    font-family="Do Hyeon"
    units-per-em="1000"
    panose-1="0 0 0 0 0 0 0 0 0 0"
    ascent="800"
    descent="-200"
    alphabetic="0" />
<glyph unicode="!" glyph-name="exclam" horiz-adv-x="304" d="M210 172H93V725H210V172ZM210 0H93V117H210V0Z" />
<glyph unicode="&quot;" glyph-name="quotedbl" horiz-adv-x="302" d="M45 582L18 753H125L141 582H45ZM181 582L154 753H261L277 582H181Z" />
<glyph unicode="#" glyph-name="numbersign" horiz-adv-x="745" d="M178 258L224 395H102L146 508H262L315 667H430L376 508H492L546 667H659L606 508H729L686 395H568L522 258H642L599 145H484L428 -23H314L370 145H254L198 -23H83L139 145H16L59 258H178ZM292
258H408L454 395H338L292 258Z" />
<glyph unicode="$" glyph-name="dollar" horiz-adv-x="558" d="M350 402Q388 402 421 387T480 347T519 288T534 215Q534 177 520 144T480 85T421 45T350 30H346H329V-23H229V29H56V135H229V296H209Q170 296 137 311T78 351T39 410T24 482Q24 521 38 554T78 613T136
653T209 668H229V721H329V668H452V562H329V402H350ZM329 296V135H351Q383 137 405 159T428 215Q428 232 422 247T405 272T380 289T348 296H329ZM130 482Q130 450 152 427T207 402H229V562H210Q176 562 153 539T130 482Z" />
<glyph unicode="%" glyph-name="percent" horiz-adv-x="695" d="M529 703L286 -23H170L415 703H529ZM174 673Q192 673 209 665T238 644T258 612T266 574V482Q266 462 259 443T239 411T210 389T174 381H109Q90 381 73 389T43 410T23 443T16 482V570Q16 589 23 607T43
640T73 664T109 673H174ZM183 550Q183 563 175 572T155 582H127Q116 582 108 573T99 550V503Q99 490 107 481T127 472H155Q166 472 174 481T183 503V550ZM586 299Q605 299 621 291T651 270T671 238T679 200V109Q679 88 672 69T652 37T623 15T586 7H522Q502 7 486
15T456 36T436 69T429 109V196Q429 215 436 233T456 267T485 290T522 299H586ZM596 176Q596 190 588 199T568 208H540Q529 208 521 199T512 176V130Q512 117 520 108T540 98H568Q579 98 587 107T596 130V176Z" />
<glyph unicode="&amp;" glyph-name="ampersand" horiz-adv-x="601" d="M580 -8H455L411 50Q402 36 392 25T369 4T340 -10T302 -15H164Q139 -15 119 -6T84 21T62 62T54 115V254Q54 276 65 294T91 327T123 352T151 372Q142 384 130 398T108 430T91 468T82 513V562Q82
609 92 640T120 691T164 720T226 729H302Q375 729 408 688T442 562V505Q438 453 404 416T309 342L406 215L467 312L542 267L462 136L580 -8ZM240 626Q192 626 192 564V513Q192 502 199 488T215 460T233 435T247 421Q262 430 277 440T305 462T324 483T332 505V564Q332
597 321 611T284 626H240ZM160 140Q160 111 173 99T208 86H280Q293 86 303 90T321 100T335 114T346 130L222 297Q216 292 206 285T185 269T167 252T160 236V140Z" />
<glyph unicode="&apos;" glyph-name="quotesingle" horiz-adv-x="187" d="M34 582L50 753H157L130 582H34Z" />
<glyph unicode="(" glyph-name="parenleft" horiz-adv-x="248" d="M232 734Q183 646 159 554T135 366Q135 272 159 180T232 2H123Q74 87 49 179T24 366Q24 460 49 553T123 734H232Z" />
<glyph unicode=")" glyph-name="parenright" horiz-adv-x="248" d="M133 734Q182 646 207 553T232 366Q232 271 207 179T133 2H24Q73 88 97 180T121 366Q121 461 97 553T24 734H133Z" />
<glyph unicode="*" glyph-name="asterisk" horiz-adv-x="521" d="M185 292H24V383H185L109 525L189 567L261 434L333 567L413 525L337 383H497V292H337L413 151L332 108L260 242L189 108L109 151L185 292Z" />
<glyph unicode="+" glyph-name="plus" horiz-adv-x="448" d="M278 411H425V312H278V166H178V312H32V411H178V558H278V411Z" />
<glyph unicode="," glyph-name="comma" horiz-adv-x="189" d="M31 -39L47 92H166L139 -39H31Z" />
<glyph unicode="-" glyph-name="hyphen" horiz-adv-x="475" d="M422 418V309H48V418H422Z" />
<glyph unicode="." glyph-name="period" horiz-adv-x="200" d="M47 -23V92H166V-23H47Z" />
<glyph unicode="/" glyph-name="slash" horiz-adv-x="395" d="M377 703L134 -23H18L263 703H377Z" />
<glyph unicode="0" glyph-name="zero" horiz-adv-x="550" d="M324 685Q362 685 396 670T455 630T495 571T510 498V186Q510 148 496 114T456 55T396 15T324 0H222Q184 0 150 15T91 55T52 114T37 186V498Q37 537 51 571T91 630T150 670T222 685H324ZM394 478Q394
495 388 510T370 538T343 556T310 563H236Q218 563 203 557T177 538T159 511T152 478V207Q152 190 158 174T176 147T203 129T236 122H310Q328 122 343 128T369 146T387 174T394 207V478Z" />
<glyph unicode="1" glyph-name="one" horiz-adv-x="339" d="M47 557L126 681H260V0H144V557H47Z" />
<glyph unicode="2" glyph-name="two" horiz-adv-x="486" d="M29 151Q99 204 164 261T290 374Q306 389 317 401T336 427T346 455T350 494Q350 510 344 525T327 552T301 569T270 576H214Q197 576 182 570T156 552T139 526T132 494V470H22V514Q22 551 36 583T74 640T131
678T201 692H288Q325 692 357 678T414 640T452 584T466 514V499Q466 469 464 444T453 397T430 354T390 310Q333 255 271 202T144 102H454V0H29V151Z" />
<glyph unicode="3" glyph-name="three" horiz-adv-x="503" d="M472 564Q490 511 481 461T428 371L422 364L428 358Q455 330 468 297Q506 206 468 115Q455 83 432 58T377 18Q354 7 331 3T285 -3T239 -5T191 -4Q155 -4 123 10T67 48T30 105T16 174V194H124Q124 177
130 163Q136 146 149 136T179 120T214 113T247 112Q268 114 289 118T329 135Q351 152 357 183T356 244Q342 296 282 307Q258 313 218 313H183V416H218Q258 416 282 422Q312 426 329 440Q341 450 348 464T355 495T350 526T329 555Q318 565 299 571T257 578T210 576T167
562T136 535T124 494H16V515Q16 558 34 591T81 647T147 680T223 692Q242 692 253 692T271 692T279 691T282 691Q294 690 306 689T331 686Q353 681 375 671T415 645Q434 629 449 608T472 564Z" />
<glyph unicode="4" glyph-name="four" horiz-adv-x="560" d="M440 240H544V136H440V0H323V134H16V240L237 681H440V240ZM323 240V588L144 240H323Z" />
<glyph unicode="5" glyph-name="five" horiz-adv-x="526" d="M264 452Q318 452 361 437T434 392T480 318T496 219Q496 110 437 48T258 -14Q206 -14 163 -1T89 40T42 108T25 206H139Q139 158 166 129T254 99Q310 99 343 130T377 218Q377 251 368 273T341 309T300
329T250 335Q186 335 158 304H41V677H463V558H167V433Q182 443 209 447T264 452Z" />
<glyph unicode="6" glyph-name="six" horiz-adv-x="555" d="M242 -4Q202 -4 166 11T103 54T61 117T45 194V226V234V490Q45 530 60 566T103 630T166 672T242 688H328Q367 688 400 674T457 636T497 579T516 507H390Q385 534 371 552T327 570H243Q208 570 188 545T167
483V410Q204 425 242 425H320Q361 425 397 410T459 367T502 304T518 226V194Q518 153 502 117T460 54T397 12T320 -4H242ZM167 197Q169 162 189 138T243 114H319Q354 114 374 139T395 201V220Q395 256 375 281T319 306H243Q208 306 188 282T167 221V197Z" />
<glyph unicode="7" glyph-name="seven" horiz-adv-x="527" d="M35 673H492L372 0H244L340 550H162V448H35V673Z" />
<glyph unicode="8" glyph-name="eight" horiz-adv-x="538" d="M310 689Q350 689 384 675T442 635T478 575T491 498V469Q491 433 480 403T447 349Q476 326 493 293T510 218V174Q510 136 496 103T456 46T396 9T324 -4H222Q184 -4 150 9T91 46T52 103T37 174V218Q37
261 54 294T101 350Q81 374 70 404T58 469V498Q58 539 71 574T108 635T165 674T240 689H310ZM394 201Q394 237 370 259T310 282H302H294H256H248H236Q201 282 177 260T152 201V189Q152 153 176 132T236 111H310Q346 111 370 132T394 189V201ZM372 490Q372 508 368
523T356 551T335 570T304 577H246Q210 577 194 552T178 490V475Q178 440 194 415T246 389H304Q322 389 334 395T355 414T368 442T372 475V490Z" />
<glyph unicode="9" glyph-name="nine" horiz-adv-x="511" d="M314 689Q354 689 385 675T437 635T468 575T479 498V410Q479 361 463 320L402 0H290L332 221Q327 220 323 220T314 220H196Q155 220 125 234T73 274T41 334T30 410V498Q30 539 40 574T72 635T124 674T196
689H314ZM357 492Q357 528 345 549T297 570H213Q178 570 166 549T153 492V417Q153 381 165 360T213 338H297Q332 338 344 359T357 417V492Z" />
<glyph unicode=":" glyph-name="colon" horiz-adv-x="218" d="M56 182H170V73H56V182ZM56 509H170V400H56V509Z" />
<glyph unicode=";" glyph-name="semicolon" horiz-adv-x="222" d="M54 510H167V401H54V510ZM53 175H169L130 -2H42L53 175Z" />
<glyph unicode="&lt;" glyph-name="less" horiz-adv-x="344" d="M186 730H315L154 370L315 2H186L26 370L186 730Z" />
<glyph unicode="=" glyph-name="equal" horiz-adv-x="450" d="M417 499V400H32V499H417ZM417 323V224H32V323H417Z" />
<glyph unicode="&gt;" glyph-name="greater" horiz-adv-x="354" d="M315 370L154 2H26L187 370L26 730H154L315 370Z" />
<glyph unicode="?" glyph-name="question" horiz-adv-x="467" d="M30 532Q30 564 35 598T55 660T95 706T161 725H301Q334 725 359 712T401 677T427 629T439 575T438 523T423 479L311 274V184H196V286L302 471Q311 486 314 510T315 556T300 595T267 611H202Q185
611 174 606T157 590T148 565T146 532H30ZM314 0H196V117H314V0Z" />
<glyph unicode="@" glyph-name="at" horiz-adv-x="700" d="M606 122Q584 108 563 113T514 138Q501 146 489 155T465 174Q429 143 389 143H309Q285 143 264 153T228 180T203 221T194 270V354Q194 371 201 392T222 430T256 460T304 472H363Q385 472 401 467T424
454V482H504V275Q504 265 518 252T547 228Q551 225 556 224T566 231V396Q566 430 553 460T517 512T464 548T401 562H302Q270 562 241 548T189 511T153 458T139 396V234Q139 198 151 169T185 119T234 87T294 75H400L602 76V-17H280Q226 -17 180 3T102 58T51 139T32
239V410Q32 462 55 509T117 591T207 646T312 666H392Q447 666 496 646T583 591T643 509T665 410V279Q665 245 664 222T657 181T640 150T606 122ZM414 334Q414 359 401 375T359 392H332Q309 392 295 376T280 334V286Q280 278 282 269T291 251T306 238T330 233H370Q382
233 391 238T405 252T412 269T414 286V334Z" />
<glyph unicode="A" glyph-name="A" horiz-adv-x="534" d="M355 104H172L147 0H26L201 681H331L499 0H379L355 104ZM196 205H332L269 483H262L196 205Z" />
<glyph unicode="B" glyph-name="B" horiz-adv-x="532" d="M506 459Q506 426 493 395T458 341V341Q488 319 501 288T514 222V180Q514 138 502 104T469 47T418 12T352 0H42V681H343Q379 681 409 669T460 635T494 582T506 514V459ZM160 398H322Q335 398 347 404T368
420T383 443T388 472V482Q388 498 383 511T369 534T347 551T322 557H160V398ZM397 208Q397 223 392 236T377 260T356 276T330 282H160V126H330Q343 126 355 132T377 148T391 171T397 201V208Z" />
<glyph unicode="C" glyph-name="C" horiz-adv-x="550" d="M327 118Q356 118 369 135T390 178H516Q512 141 497 109T458 52T400 14T328 0H242Q202 0 166 15T103 58T61 121T45 198V482Q45 523 60 559T103 623T166 665T242 681H328Q367 681 400 667T457 629T497 571T516
500H390Q385 526 371 544T327 562H243Q208 562 188 537T167 476V205Q167 169 187 144T243 118H327Z" />
<glyph unicode="D" glyph-name="D" horiz-adv-x="570" d="M51 681H362Q395 681 424 667T476 628T510 571T523 501V180Q523 142 511 110T476 53T425 14T362 0H51V681ZM331 126Q346 126 358 132T379 148T394 171T399 201V481Q399 496 394 509T380 533T358 550T331
556H176V126H331Z" />
<glyph unicode="E" glyph-name="E" horiz-adv-x="570" d="M180 115H519V0H51V681H519V566H180V398H519V284H180V115Z" />
<glyph unicode="F" glyph-name="F" horiz-adv-x="552" d="M166 0H51V681H519V566H163V398H520V284H166V0Z" />
<glyph unicode="G" glyph-name="G" horiz-adv-x="560" d="M331 118Q360 118 378 135T402 178V291H289V398H517V0H402V22Q382 11 359 6T311 0H242Q202 0 166 15T103 58T61 121T45 198V482Q45 523 60 559T103 623T166 665T242 681H328Q367 681 400 667T457 629T497
571T516 500H393Q386 526 372 544T327 562H243Q226 562 212 556T187 537T172 510T166 476V205Q166 187 171 172T187 144T211 125T243 118H331Z" />
<glyph unicode="H" glyph-name="H" horiz-adv-x="567" d="M519 0H393V284H174V0H47V681H174V398H393V681H519V0Z" />
<glyph unicode="I" glyph-name="I" horiz-adv-x="229" d="M51 681H178V0H51V681Z" />
<glyph unicode="J" glyph-name="J" horiz-adv-x="478" d="M447 198Q447 157 432 121T389 58T326 16T250 0H201Q162 0 130 14T72 52T32 108T14 178H137Q143 153 158 136T202 118H244Q262 118 276 125T300 144T317 171T323 205V681H447V198Z" />
<glyph unicode="K" glyph-name="K" horiz-adv-x="538" d="M266 345L394 172Q427 128 459 85T523 0H390L186 269H180V0H51V681H180V412H186L390 681H522L266 345Z" />
<glyph unicode="L" glyph-name="L" horiz-adv-x="552" d="M155 115H524V0H35V681H155V115Z" />
<glyph unicode="M" glyph-name="M" horiz-adv-x="605" d="M303 189H310Q337 312 364 434T419 680H562V0H464V442H458Q434 331 408 221T359 0L250 -1L157 441H150V0H51V680H194L303 189Z" />
<glyph unicode="N" glyph-name="N" horiz-adv-x="565" d="M173 446V0H51V681H173L404 231V681H523V0H404L173 446Z" />
<glyph unicode="O" glyph-name="O" horiz-adv-x="560" d="M318 681Q358 681 394 666T457 623T499 560T515 482V198Q515 157 500 121T457 58T394 16T318 0H240Q199 0 163 15T101 58T58 121T42 198V482Q42 523 58 559T100 623T163 665T240 681H318ZM393 476Q393
512 373 537T317 562H241Q206 562 186 537T165 476V205Q165 169 185 144T241 118H317Q352 118 372 143T393 205V476Z" />
<glyph unicode="P" glyph-name="P" horiz-adv-x="542" d="M327 681Q366 681 400 667T458 627T497 568T512 496V466Q512 428 498 395T459 336T400 296T327 282H155V0H35V681H327ZM155 562V401H307Q350 401 370 422T390 481Q390 517 370 539T307 562H155Z" />
<glyph unicode="Q" glyph-name="Q" horiz-adv-x="590" d="M321 681Q362 681 398 666T460 623T502 560T518 482V198Q518 174 512 152T497 109L583 0H466L436 38Q412 20 383 10T321 0H242Q202 0 166 15T103 58T61 121T45 198V482Q45 523 60 559T103 623T166 665T242
681H321ZM395 237V476Q395 494 390 509T375 537T351 555T320 562H243Q208 562 188 537T167 476V205Q167 169 187 144T243 118H320Q343 118 361 131L226 300H346L395 237Z" />
<glyph unicode="R" glyph-name="R" horiz-adv-x="566" d="M178 275V0H51V681H343Q382 681 416 667T474 627T513 568T528 496V466Q528 428 514 395T475 336T416 296T343 282H309L540 0H395L178 275ZM178 562V401H323Q366 401 386 422T406 481Q406 517 386 539T323
562H178Z" />
<glyph unicode="S" glyph-name="S" horiz-adv-x="583" d="M354 422Q396 422 432 406T495 362T536 294T551 207Q551 163 538 125T499 60T440 16T364 0H54V126H328Q348 126 366 131T398 146T419 171T427 207Q427 246 402 268T338 290H257Q206 290 164 301T93 336T48
398T32 489Q32 526 45 561T81 622T137 665T210 681H491V548H262Q242 548 225 546T195 537T175 517T168 482Q168 457 185 440T231 422H354Z" />
<glyph unicode="T" glyph-name="T" horiz-adv-x="506" d="M192 555H18V681H490V555H314V0H192V555Z" />
<glyph unicode="U" glyph-name="U" horiz-adv-x="565" d="M524 198Q524 157 509 121T467 58T404 16T327 0H250Q209 0 173 15T110 58T67 121T51 198V681H174V205Q174 187 180 172T198 144T225 125T258 118H318Q335 118 350 125T377 144T395 171T402 205V681H524V198Z" />
<glyph unicode="V" glyph-name="V" horiz-adv-x="534" d="M262 234H268Q294 346 321 456T376 681H498L330 0H200L26 681H149L262 234Z" />
<glyph unicode="W" glyph-name="W" horiz-adv-x="860" d="M603 234H610Q636 347 663 456T718 681H840L672 0H542L430 438L322 0H191L18 681H140L253 234H259L286 343Q306 428 326 511T368 681H490L603 234Z" />
<glyph unicode="X" glyph-name="X" horiz-adv-x="518" d="M338 345L499 0H370L267 251H261L155 0H26L183 345Q145 428 105 513T26 681H155L261 464H267Q279 490 292 517T318 572L370 681H499L338 345Z" />
<glyph unicode="Y" glyph-name="Y" horiz-adv-x="504" d="M190 310L18 681H147L252 464H258Q270 490 283 517T310 572L362 681H490L312 309V0H190V310Z" />
<glyph unicode="Z" glyph-name="Z" horiz-adv-x="529" d="M366 566H26V681H498V566L158 115H498V0H26V115L366 566Z" />
<glyph unicode="[" glyph-name="bracketleft" horiz-adv-x="310" d="M31 734H274V619H149V115H274V1H31V734Z" />
<glyph unicode="\" glyph-name="backslash" horiz-adv-x="395" d="M18 703L262 -23H377L132 703H18Z" />
<glyph unicode="]" glyph-name="bracketright" horiz-adv-x="301" d="M274 1H31V115H156V619H31V734H274V1Z" />
<glyph unicode="^" glyph-name="asciicircum" horiz-adv-x="389" d="M127 478H16L130 698H254L373 478H261L195 614L127 478Z" />
<glyph unicode="_" glyph-name="underscore" horiz-adv-x="417" d="M385 83V-16H32V83H385Z" />
<glyph unicode="`" glyph-name="grave" horiz-adv-x="208" d="M77 582L50 753H157L173 582H77Z" />
<glyph unicode="a" glyph-name="a" horiz-adv-x="484" d="M30 348Q33 380 44 409T78 460T133 495T209 509H269Q314 509 347 494T403 455T436 399T447 335V0H163Q130 0 104 12T61 45T35 94T26 154Q26 185 35 212T61 258T103 289T161 301H332V311Q332 329 329 344T318
371T294 388T251 395H226Q186 395 169 384T146 348H30ZM133 154Q133 128 143 116T167 103H332V205H167Q154 205 144 192T133 154Z" />
<glyph unicode="b" glyph-name="b" horiz-adv-x="486" d="M262 509Q306 509 340 496T399 458T437 400T450 323V186Q450 144 437 110T400 51T341 13T262 0H222Q178 0 144 13T85 50T47 109T34 186V323V331V681H152V496Q189 509 230 509H262ZM222 394Q190 394 172
374T152 323V190Q152 157 171 136T222 115H262Q294 115 314 136T334 190V320Q334 353 314 373T262 394H222Z" />
<glyph unicode="c" glyph-name="c" horiz-adv-x="451" d="M252 115Q276 115 293 126T315 158H434Q425 86 378 43T252 0H211Q168 0 133 13T74 50T37 109T23 186V323Q23 366 36 400T74 458T133 495T211 509H252Q333 509 380 466T434 348H316Q310 370 294 382T252
394H211Q179 394 159 374T138 320V190Q138 157 158 136T211 115H252Z" />
<glyph unicode="d" glyph-name="d" horiz-adv-x="476" d="M218 0Q174 0 140 13T81 50T43 109T30 186V323Q30 366 43 400T80 458T139 495T218 509H258Q300 509 334 497V681H446V0H218ZM334 115V320Q334 353 312 373T258 394H218Q186 394 164 374T141 320V190Q141
157 163 136T218 115H334Z" />
<glyph unicode="e" glyph-name="e" horiz-adv-x="506" d="M32 328Q32 365 46 397T83 455T136 494T196 509H310Q349 509 379 493T430 451T462 394T474 332V203H150V176Q150 140 170 125T223 110H456V-2H197Q163 -2 133 11T81 48T45 103T32 173V328ZM151 298H358V303Q358
342 338 367T284 393H222Q206 393 193 386T171 366T157 338T151 303V298Z" />
<glyph unicode="f" glyph-name="f" horiz-adv-x="366" d="M334 574H298Q264 574 243 553T222 499V477H334V362H222V-1H117V362H26V477H117V494Q117 537 129 571T164 630T221 667T298 681H334V574Z" />
<glyph unicode="g" glyph-name="g" horiz-adv-x="486" d="M452 509V-1Q452 -42 440 -73T407 -127T356 -161T290 -173H61V-62H271Q302 -62 322 -43T343 10V16H194Q161 16 132 27T80 62T45 118T32 196V329Q32 373 45 406T80 463T131 497T194 509H452ZM342 398H219Q204
398 191 392T168 374T152 348T146 317V209Q146 192 152 177T168 151T191 134T219 127H342V398Z" />
<glyph unicode="h" glyph-name="h" horiz-adv-x="494" d="M239 395Q213 395 197 389T171 371T159 345T155 311V0H43V681H155V498Q170 503 186 506T222 509H282Q326 509 359 494T415 455T449 399T460 335V0H347V311Q347 329 344 344T332 371T306 388T264 395H239Z" />
<glyph unicode="i" glyph-name="i" horiz-adv-x="206" d="M162 0H44V509H162V0ZM162 564H44V681H162V564Z" />
<glyph unicode="j" glyph-name="j" horiz-adv-x="203" d="M156 564H46V681H156V564ZM-51 -66H-30Q4 -66 23 -46T42 8V509H158V12Q158 -30 147 -64T113 -123T55 -160T-30 -174H-51V-66Z" />
<glyph unicode="k" glyph-name="k" horiz-adv-x="464" d="M464 0H332L160 194V0H42V681H160V348L322 509H461L216 274L464 0Z" />
<glyph unicode="l" glyph-name="l" horiz-adv-x="216" d="M47 681H165V0H47V681Z" />
<glyph unicode="m" glyph-name="m" horiz-adv-x="817" d="M555 395Q529 395 513 389T489 371T477 345T474 312V0H357V311Q357 329 354 344T343 371T318 388T275 395H251Q225 395 209 389T183 371T171 345T167 311V0H50V509H167V494Q206 509 250 509H294Q334 509
365 497T418 464Q442 485 474 497T546 509H598Q642 509 676 494T732 455T766 399T778 335V0H662V311Q662 329 659 344T647 371T622 388T580 395H555Z" />
<glyph unicode="n" glyph-name="n" horiz-adv-x="506" d="M251 395Q225 395 209 389T183 371T171 345T167 311V0H50V509H167V496Q202 509 242 509H294Q338 509 372 494T428 455T462 399T474 335V0H357V311Q357 329 354 344T343 371T318 388T275 395H251Z" />
<glyph unicode="o" glyph-name="o" horiz-adv-x="476" d="M257 509Q301 509 335 496T394 458T432 400T445 323V186Q445 144 432 110T395 51T336 13T257 0H216Q173 0 138 13T79 50T42 109T29 186V323Q29 366 41 400T78 458T138 495T216 509H257ZM216 394Q185 394
164 374T142 320V190Q142 157 163 136T216 115H257Q289 115 309 136T330 190V320Q330 353 310 373T257 394H216Z" />
<glyph unicode="p" glyph-name="p" horiz-adv-x="478" d="M262 509Q306 509 340 496T399 458T437 400T450 323V186Q450 144 437 110T400 51T341 13T262 0H230Q186 0 150 14V-174H34V509H262ZM150 394V190Q150 157 170 136T222 115H262Q294 115 315 136T336 190V320Q336
353 315 373T262 394H150Z" />
<glyph unicode="q" glyph-name="q" horiz-adv-x="490" d="M222 0Q178 0 144 13T85 50T47 109T34 186V323Q34 366 47 400T84 458T143 495T222 509H450V186V178V-174H334V14Q298 0 254 0H222ZM262 115Q294 115 314 136T334 190V394H222Q190 394 169 374T148 320V190Q148
157 169 136T222 115H262Z" />
<glyph unicode="r" glyph-name="r" horiz-adv-x="426" d="M168 405Q182 428 205 445T257 475T318 493T382 499H395V375H382Q346 375 308 361T239 323T188 270T168 212V0H44V513H168V405Z" />
<glyph unicode="s" glyph-name="s" horiz-adv-x="474" d="M394 410H195Q182 410 174 406T159 393T150 376T147 357Q147 338 159 323T190 307H302Q337 307 363 295T407 262T433 212T442 150V147Q442 114 432 87T402 41T357 11T302 0H60V99H268Q291 99 310 112T331
151V150Q331 165 326 175T311 191T291 201T268 204H178Q134 204 106 218T61 254T38 304T32 361Q32 391 41 419T67 468T111 502T170 514H394V410Z" />
<glyph unicode="t" glyph-name="t" horiz-adv-x="340" d="M18 509H112V681H230V509H324V394H230V0H112V394H18V509Z" />
<glyph unicode="u" glyph-name="u" horiz-adv-x="500" d="M263 114Q288 114 303 120T328 136T342 160T346 190V509H463V0H346V13Q330 6 312 3T272 0H221Q176 0 143 15T87 54T54 110T42 174V509H158V198Q158 180 161 165T173 139T198 121T241 114H263Z" />
<glyph unicode="v" glyph-name="v" horiz-adv-x="449" d="M279 0H167L13 509H124L222 186L317 509H429L279 0Z" />
<glyph unicode="w" glyph-name="w" horiz-adv-x="746" d="M584 0H471L374 321L279 0H167L13 509H124L222 186L317 509H429L526 188L622 509H733L584 0Z" />
<glyph unicode="x" glyph-name="x" horiz-adv-x="454" d="M294 254Q329 191 365 127T435 0H315L227 173L139 0H19L154 252L19 509H139L227 331L315 509H436L294 254Z" />
<glyph unicode="y" glyph-name="y" horiz-adv-x="445" d="M231 -174H121L172 2L18 509H129L226 184L322 509H434L231 -174Z" />
<glyph unicode="z" glyph-name="z" horiz-adv-x="424" d="M398 400L165 115H398V0H26V109L258 394H26V509H398V400Z" />
<glyph unicode="{" glyph-name="braceleft" horiz-adv-x="334" d="M87 304L23 385L87 481L71 630Q65 675 85 701T146 726H298V611H224Q207 613 197 607T189 587L205 481L141 384L205 305L189 195Q187 184 186 173T186 153T193 137T213 129L298 119V1L139 14Q114
17 99 28T77 57T70 99T71 153L87 304Z" />
<glyph unicode="|" glyph-name="bar" horiz-adv-x="194" d="M39 681H157V0H39V681Z" />
<glyph unicode="}" glyph-name="braceright" horiz-adv-x="326" d="M250 153Q252 124 251 100T244 57T222 28T182 14L23 1V119L108 129Q121 130 127 136T134 152T135 173T132 195L116 305L180 384L116 481L132 587Q134 601 124 607T97 611H23V726H175Q214 728
235 702T250 630L234 481L298 385L234 304L250 153Z" />
<glyph unicode="~" glyph-name="asciitilde" horiz-adv-x="541" d="M514 329Q514 325 500 316T463 300T410 287T349 285Q324 287 303 298T260 322T214 344T163 354Q124 352 95 337T33 298V411Q65 439 96 450T162 461Q186 461 212 453T261 435T305 415T341 399Q361
393 385 394T433 400T478 416T514 436V329Z" />
<glyph unicode="&#xa2;" glyph-name="cent" horiz-adv-x="451" d="M425 559L394 467Q443 424 450 348H354L276 115Q297 118 311 129T331 158H450Q441 86 394 43T268 0H238L222 -47H114L136 18Q90 40 65 83T39 186V323Q39 366 52 400T90 458T149 495T227 509H268Q285
509 302 506L319 559H425ZM154 190Q154 155 176 134L263 394H227Q195 394 175 374T154 320V190Z" />
<glyph unicode="&#xa3;" glyph-name="sterling" horiz-adv-x="467" d="M38 334H98V401Q98 453 115 490T160 550T225 585T303 597Q350 597 381 590T431 572V482Q407 490 386 493T332 497Q311 497 292 493T257 477T232 445T222 392V334H363V250H222V230Q222 178
208 149T166 98V97H435V0H32V88Q64 104 81 133T98 214V250H38V334Z" />
<glyph unicode="&#xa4;" glyph-name="currency" horiz-adv-x="784" d="M709 579L612 492Q627 463 636 431T646 361Q646 322 635 285T605 218Q608 214 623 201T655 173T687 144T706 127L649 62L546 156Q512 128 471 112T382 96Q338 96 299 109T225 148Q227 150
222 146T206 132T183 111T158 90T137 71T126 62L69 127L164 212Q144 243 132 281T119 361Q119 435 158 498Q154 500 140 512T111 539T82 566T66 579L128 641L214 565Q248 590 291 606T382 623Q432 623 475 606T554 559Q552 557 557 561T571 574T593 593T616 614T635
631T646 641L709 579ZM566 361Q566 399 552 432T512 490T454 529T382 544Q343 544 310 530T252 491T213 433T198 361Q198 322 212 289T252 231T310 192T382 178Q420 178 453 192T512 231T551 289T566 361Z" />
<glyph unicode="&#xa5;" glyph-name="yen" horiz-adv-x="504" d="M146 403L18 681H147L252 464H258Q270 490 283 517T310 572L362 681H490L357 403H449V304H312V227H449V128H312V0H190V128H56V227H190V304H56V403H146Z" />
<glyph unicode="&#xa7;" glyph-name="section" horiz-adv-x="435" d="M246 394Q230 399 213 403T179 414Q179 413 180 412Q151 409 137 395T122 357Q122 332 136 318T186 294Q204 289 220 284T254 273Q254 272 255 272H256Q316 282 316 329Q316 342 313 351T302
367T281 381T246 394ZM202 -23Q154 -23 114 -14T43 11V100Q59 94 74 88T106 78T142 72T186 70Q234 70 256 83T278 122Q278 134 276 142T267 158T248 170T215 181Q196 186 177 192T138 203Q110 210 87 221T46 249T19 289T9 344Q9 389 29 414T87 454Q69 470 58 495T47
558Q47 625 94 665T236 706Q262 706 282 704T319 697T349 687T375 675V588Q353 598 321 606T248 614Q209 614 186 603T162 568L159 580Q158 576 158 573T158 568Q158 555 161 547T171 531T188 519T216 508Q237 502 257 496T299 484Q332 476 357 465T398 438T423
399T432 344Q432 297 412 271T357 230Q398 197 398 132Q398 54 348 16T202 -23Z" />
<glyph unicode="&#xa9;" glyph-name="copyright" horiz-adv-x="713" d="M416 682Q471 682 519 662T603 607T660 525T681 426V255Q681 202 660 156T603 74T519 19T416 -1H304Q250 -1 202 19T118 74T61 155T40 255V426Q40 478 61 525T118 607T202 662T304 682H416ZM147
258Q147 219 161 188T201 134T258 100T325 87H396Q430 87 461 99T516 134T555 188T574 258V428Q574 462 560 491T523 542T469 576T405 588H318Q284 588 253 577T199 544T161 494T147 428V258ZM373 242Q389 242 399 249T414 270H494Q488 222 457 193T373 164H345Q286
164 253 198T219 290V380Q219 437 252 471T345 505H373Q426 505 458 476T494 397H415Q411 411 400 419T373 428H345Q324 428 310 414T296 378V291Q296 270 310 256T345 242H373Z" />
<glyph unicode="&#xaf;" glyph-name="overscore" horiz-adv-x="417" d="M385 651V552H32V651H385Z" />
<glyph unicode="&#xb0;" glyph-name="degree" horiz-adv-x="303" d="M151 668Q136 668 124 662T104 645T91 622T86 595Q86 566 105 546T152 525Q181 525 200 545T219 597Q219 610 215 622T202 645T181 661T152 668H151ZM154 724Q183 724 207 714T248 686T275 646T285
598Q285 569 274 546T244 506T202 480T152 470Q123 470 99 480T57 506T30 545T20 594Q20 622 30 646T59 687T101 714T153 724H154Z" />
<glyph unicode="&#xb1;" glyph-name="plusminus" horiz-adv-x="456" d="M278 507H425V408H278V262H178V408H32V507H178V654H278V507ZM421 171V72H36V171H421Z" />
<glyph unicode="&#xb2;" glyph-name="twosuperior" horiz-adv-x="290" d="M30 479Q65 505 96 531T154 582Q166 593 171 601T177 625Q177 634 171 640T156 647H130Q122 647 116 641T109 625V598H28V634Q28 654 35 672T56 703T87 723T125 731H165Q185 731 202 724T232
703T253 672T261 634V628Q261 612 260 599T254 575T242 553T221 530Q210 520 201 512T183 495T165 479T144 462H256V385H30V479Z" />
<glyph unicode="&#xb3;" glyph-name="threesuperior" horiz-adv-x="287" d="M158 730Q178 730 197 722T231 701T255 669T264 626Q264 609 259 594T242 566Q254 550 259 532T265 494Q265 441 232 412T144 383Q82 383 51 411T20 479V504H99Q99 498 100 491T106 478Q112
470 121 469T138 467Q159 468 167 479T176 500Q176 514 167 525T127 536H95V597H127Q151 597 162 602T174 623Q174 634 166 641T138 648Q124 648 112 643T99 626V610H20V635Q20 658 29 676T54 706T89 724T130 731Q138 731 144 731T153 730H158Z" />
<glyph unicode="&#xb6;" glyph-name="paragraph" horiz-adv-x="490" d="M228 374H196Q160 374 129 384T74 414T37 462T24 527Q24 560 35 588T69 637T129 670T219 682H435V-7H362V615H300V-7H228V374Z" />
<glyph unicode="&#xb9;" glyph-name="onesuperior" horiz-adv-x="214" d="M18 643L73 731H158V390H76V643H18Z" />
<glyph unicode="&#xbc;" glyph-name="onequarter" horiz-adv-x="737" d="M654 183H724V90H654V0H554V90H347V174L499 478H654V183ZM569 703L198 -23H82L455 703H569ZM14 572L81 678H189V200H89V572H14ZM554 183V359L463 183H554Z" />
<glyph unicode="&#xbd;" glyph-name="onehalf" horiz-adv-x="797" d="M14 572L81 678H189V200H89V572H14ZM593 703L190 -23H74L479 703H593ZM442 118Q492 156 537 195T620 270Q640 287 649 301T658 342Q658 360 645 373T614 386H578Q559 386 547 373T534 342V314H438V355Q438
382 448 406T476 448T518 476T569 486H627Q654 486 678 476T719 448T747 406T758 355V346Q758 324 756 306T748 273T732 242T703 210Q670 180 636 149T565 90H750V0H442V118Z" />
<glyph unicode="&#xbe;" glyph-name="threequarters" horiz-adv-x="860" d="M782 183H852V90H782V0H682V90H475V174L627 478H782V183ZM206 678Q234 677 260 667T306 638T339 593T352 535Q352 484 314 446Q333 426 343 399T354 341Q354 305 342 277T307 229T255
200T188 190Q146 190 114 200T60 228T27 269T16 320V345H110Q110 332 111 327T114 317Q117 308 125 303T142 294T162 290T181 290Q194 290 205 293T226 303T240 318T246 343Q246 375 224 387T162 402H127V493H162Q173 493 187 494T213 499T234 513T243 537Q243
549 238 557T223 570T202 577T179 579Q166 579 154 577T132 569T116 555T110 534V523H16V548Q16 580 29 604T63 645T111 670T166 678Q178 678 186 678T198 678H206ZM697 703L326 -23H210L583 703H697ZM682 183V359L591 183H682Z" />
<glyph unicode="&#xd7;" glyph-name="multiply" horiz-adv-x="397" d="M196 448L300 552L370 482L266 378L370 274L299 204L196 307L93 204L22 274L126 378L22 482L92 552L196 448Z" />
<glyph unicode="&#xf7;" glyph-name="divide" horiz-adv-x="506" d="M478 414V313H24V414H478ZM200 497V597H303V497H200ZM200 137V237H303V137H200Z" />
<glyph unicode="&#x2018;" glyph-name="quoteleft" horiz-adv-x="208" d="M77 582L50 753H157L173 582H77Z" />
<glyph unicode="&#x2019;" glyph-name="quoteright" horiz-adv-x="208" d="M34 582L50 753H157L130 582H34Z" />
<glyph unicode="&#x201c;" glyph-name="quotedblleft" horiz-adv-x="308" d="M45 582L18 753H125L141 582H45ZM181 582L154 753H261L277 582H181Z" />
<glyph unicode="&#x201d;" glyph-name="quotedblright" horiz-adv-x="308" d="M154 582L170 753H277L250 582H154ZM18 582L34 753H141L114 582H18Z" />
</font>
</defs>
</svg>
